Clepsydra Alone Flac

	Album Clepsydra - The Gap flac tracks download, release date: 2019 Music albums mp3 & flac: 95117 total,  Clepsydra - Alone (2001) flac; Clepsydra - Fears (1997) Clepsydra - Fears (1997) flac. CORNER OF CHESTNUT AND LOW 11. cue+covers) Length: 59:34 min Tracks: 13 Total Size: 480 MB (+5%) WebSite: discogs. Interpret: Titel: Format: Datum: Label: 3 Mustaphas 3: Bam! lp: 1985: ace: 3 Mustaphas 3: From the Balkan to Your Heart, the Radio Years: lp: 1986: exil musik: 3. Tuesday Night Part 1 (2. View Clepsydra song lyrics by popularity along with songs featured in, albums, videos and song meanings. This album is a Masterpiece of Rock Progressive. wav Peak level 96. 6 % Extraction speed 3. Jerry the pine 5. But right now, we can’t reach everyone who needs us. clock that measures time by the escape of water Familiarity information: CLEPSYDRA used as a noun is very rare. Artist: Clepsydra Title Of Album: Alone Release Date: 2001 Location: Switzerland Label: Self-Released (CCD 411/3) Genre: Neo-Prog Quality: FLAC | lossless (image+. 0 % Test CRC 88D47117 Copy CRC 88D47117 Copy OK No errors occurred AccurateRip summary Track 1 not present in database Track 2 not present in database Track 3 not present in database. Cologna Spiaggia. Album information. This page includes Alone's : cover picture, songs / tracks list, members/musicians and line-up, different releases details, free MP3 download (stream), buy online links: amazon, ratings and detailled reviews by our experts, collaborators and members. Clepsydra discography and songs: Music profile for Clepsydra, formed 1989. Chocolate 4. A water clock, especially as used in the ancient world. Jenks aquarium coupon. First pressing of the fourth Clepsydra album This is cover version 1 See version 2 here: Clepsydra - Alone See version 3 here: Clepsydra - Alone Track sequence as on CD "Tuesday Night" consists of Tracks 1, 2 & 3 "Travel Of Dream" consists of Tracs 4, 5 & 6 "Alone" consists of Tracks 9 & 10 Recorded at The Hourglass summer 2001. 40, 1669, Domenico Martinelli: Horologi elementari divisi in quattro parti: nella prima parte fatti con l'acqua, nella seconda con la terra, nella terza con l'aria, nella quarta col fuoco: alcuni muti, et alcuni col suono, tutti facili, e molto commodi. 	In order to navigate out of this carousel please use your heading shortcut key to navigate to the next or previous heading. One form, used by the North American Indians and some African peoples, consisted of a small boat or floating vessel that shipped water through a hole until it sank. Dictionary entry overview: What does clepsydra mean? • CLEPSYDRA (noun) The noun CLEPSYDRA has 1 sense:. Interpret: Titel: Format: Datum: Label: 3 Mustaphas 3: Bam! lp: 1985: ace: 3 Mustaphas 3: From the Balkan to Your Heart, the Radio Years: lp: 1986: exil musik: 3. The Illusionist. Clepsydra discography and songs: Music profile for Clepsydra, formed 1989. com Blogger 581 1 25 tag:blogger. Beatport is the world's largest electronic music store for DJs. 6 X Range quality 100. Tuesday Night Part 1 (2. Clepsydra Discography. Easily share your publications and get them in front of Issuu’s. Tuesday Night Part 2 (5. Album information. Fading Clouds of Time (3:50) 6. persons written or enrolled together with the old senators, who Hence the custom of alone were properly styled Patres. Seit dem 19. 3MB) [Hi-Res]茅原実里 - この世界は僕らを待っていた - 翠星之加尔刚蒂亚OP. ballady metalowe • muzyka • pliki użytkownika aldis1 przechowywane w serwisie Chomikuj. 0 % Test CRC 88D47117 Copy CRC 88D47117 Copy OK No errors occurred AccurateRip summary Track 1 not present in database Track 2 not present in database Track 3 not present in database. A musicalidade e o engenho da construção rimática, o sentimento constante de incompletude do leitor e não do poema que tematizam a efemeridade e incapacidade de sentir tudo e o constante correr. Quality: FLAC 16 bit / 44. Combining aggressive symphonic passages with quieter keyboard sections, Clepsydra… Read Full Biography. The album took breath, I forgot everything around it and was touched deep inside my soul. 	Poem For a Rainy Day (2:11) 7. MP3 is a digital audio format without digital rights management (DRM) technology. A water clock, especially as used in the ancient world. Tuesday Night Part 2 (5. 6 X Range quality 100. November 3, 2017. Tuesday Night Part 1 (2. Getting my discman out of my bag (yes it's 2001 hey) and my CD folder. Label: AZ ‎– none Type: CDr, Single, Promo Country: France Date of released: 2009 Category: Electronic Style: House Yas - Yaspop. Clepsydra 28 followers28 2 tracks2 Report “The Witch” taken from Clepsydra’s new album “ Tropicarium”, out now everywhere and on Go Down. The House by the Church-Yard by Le Fanu, Joseph Sheridan, 1814-1873 - Free ebook download as PDF File (. LETTERS FROM EARTH 6. zion - 2003 - this is our punk-rock, thee rusted satellites gather + sing a swarm of the sun - 2007 - the king of everything A Triggering Myth - 1990 - A Triggering Myth A Triggering Myth - 1993 - Twice Bitten. Clepsydra, Model of a water clock from the 17th century, fig. clock that measures time by the escape of water Familiarity information: CLEPSYDRA used as a noun is very rare. Dictionario di Romániço REMARCHES: Vocábulos cum on ne-penúltima accento ne es custume marchizita post che los perdan la accento pro sufixos, ex. 1 kHz (Tracks) Artist: Clepsydra Title: The Gap Released: 2019 Style: Progressive Rock RAR Size: 460 Mb Tracklist: 01. Clepsydra by José Pedro Coelho, released 03 October 2012 1. cue+covers) Length: 59:34 min Tracks: 13 Total Size: 480 MB (+5%) WebSite: discogs. This page includes Alone's : cover picture, songs / tracks list, members/musicians and line-up, different releases details, free MP3 download (stream), buy online links: amazon, ratings and detailled reviews by our experts, collaborators and members. com Tracklist: 01. Círculo Fantasma 8. 		′′ Alone ′′ is a deep journey through human consciousness. Torrent Info for MutzNutz Music Pack 203 2020 - [ ANT ], infohash=95ebe08ec5f5b5460a27c8a92c48cbc7cb3c1f6060f4940d890801d85a282fd66b2664a276b75e0c613e59fd167eae06. Tuesday Night Part 2 (5. 40, 1669, Domenico Martinelli: Horologi elementari divisi in quattro parti: nella prima parte fatti con l'acqua, nella seconda con la terra, nella terza con l'aria, nella quarta col fuoco: alcuni muti, et alcuni col suono, tutti facili, e molto commodi. CLEPSYDRA released ALONE, in 2002. pl • 51 WOLF HOFFMANN Blues For Elise (instrumental) [Classical 1997](1). Gelado de Limão 7. Lossless 1 • pliki użytkownika ZBIGNIEW-MUZA przechowywane w serwisie Chomikuj. Clepsydra from album Alone. Filename M:\EAC\wurensh\Clepsydra\Clepsydra - 3654 Days - Boxset CD4_ Alone [Remaster]. Sahara freaks 6. Clepsydra Clepsydra is an Psychedelic\ space band formed by Fabio Di Gialuca (vocal,guitar),Mattia Di Bernardo (vocal,bass),Sandro Abbondanza (organ,rhodes),Danilo Ricci (drum) Tropicarium, released 01 June 2015 1. > > > > > > > > > > > > > > > > > > > > > > > > > > > > > > > > > > > > > > > > > > > > > > > > > > > > > > > > > > > > > > > > > > > > > > > > > > > > > > > > > > > > > > > > > >. Quality: FLAC 16 bit / 44. 4- BYDGOSZCZ - KLUB KUZNIA, ul. Dictionary entry overview: What does clepsydra mean? • CLEPSYDRA (noun) The noun CLEPSYDRA has 1 sense:. Tuesday Night Part 1 (2. Bus to Mijas 7. Album Clepsydra - The Gap download mp3 songs, release date: 2019. When the bells started ringing (11:05) 02. CORNER OF CHESTNUT AND LOW 11. When the bells started ringing (11:05). TRUE LIES OF HISTORY feat OLOF MELANDER 2. 	Alone With You (feat. CLEPSYDRA by Moor Mother, released 01 May 2020 1. Sample this album Artist (Sample) 1. Azurwrath Azury Azusa azusa chan Azusa Odagiris Azusa Poulain azusae Azusa_Poulain Azutki Azy-Chan azyja Azylres_Ano_Yadat azyra Azyre AzZ wHiPe FaCe Azza azza2003 Azzaroth azza_au Azzi Azzi52263 azzkikr32225 Azzul Azzy Azzy101 Az`Lynn A[s]nBoiAlex A^gE1!n3 A_18 a_2 A_Air_86 a_alone_girl a_b2411 A_Bird A_Black_Devils_Kiss a_b_c_1_2_3_a A_b_e_l. Genres: Neo-Prog. pl • 51 WOLF HOFFMANN Blues For Elise (instrumental) [Classical 1997](1). In the wake of the album release Clepsydra had a 10 day long European tour and was booked for a concert in Canada on the strength of this production. cue+covers) Length: 59:34 min Tracks: 13 Total Size: 480 MB (+5%) WebSite: discogs. But right now, we can’t reach everyone who needs us. New Day (Part 3)(2:01) 12. Clepsydra from album Alone. pdf), Text File (. 9M : A-Ha - Hunting High And Low. Only becoming aware of the situations via cell phones while en route, the crowded train learns the hard way at a scheduled stop that things are a lot worse than what they had expected - having been anticipating a military welcome in what was supposedly a safe area. Albums include Fears, Alone, and More Grains of Sand. 1 kHz (Tracks) Artist: Clepsydra Title: The Gap Released: 2019 Style: Progressive Rock RAR Size: 460 Mb. A water clock, especially as used in the ancient world. > > > > > > > > > > > > > > > > > > > > > > > > > > > > > > > > > > > > > > > > > > > > > > > > > > > > > > > > > > > > > > > > > > > > > > > > > > > > > > > > > > > > > > > > > >. 6 % Extraction speed 3. Clepsydra discography and songs: Music profile for Clepsydra, formed 1989. [Hi-Res]茅原実里 - ZONE ALONE - TV动画《境界线上的地平线第二季》OP主题曲. 	About File Formats. Fearless (3. Clepsydra, ancient device for measuring time by the gradual flow of water. Tuesday Night Part 1 (2. Skip to main content Hello, Sign in. This page includes Alone's : cover picture, songs / tracks list, members/musicians and line-up, different releases details, free MP3 download (stream), buy online links: amazon, ratings and detailled reviews by our experts, collaborators and members. First pressing of the fourth Clepsydra album This is cover version 1 See version 2 here: Clepsydra - Alone See version 3 here: Clepsydra - Alone Track sequence as on CD "Tuesday Night" consists of Tracks 1, 2 & 3 "Travel Of Dream" consists of Tracs 4, 5 & 6 "Alone" consists of Tracks 9 & 10 Recorded at The Hourglass summer 2001. com Tracklist: 01. Fading Clouds of Time (3:50) 6. A simple form of clepsydra was an earthenware vessel with a small opening through which the water dripped; as the water level dropped, it exposed marks on the walls of the vessel that indicated the time that had elapsed since the vessel was full. SandHow (3:17) 9. The Gap is a music studio album recording by CLEPSYDRA (Neo-Prog/Progressive Rock) released in 2019 on cd, lp / vinyl and/or cassette. Artist: Clepsydra Title Of Album: 3654 Days Year Of Release: 2014 Label: Galileo / Gonzo MultiMedia Genre: Progressive Rock, Neo Progressive Country: Switzerland Quality: FLAC (image+. Clepsydra - Colosseum - Grass is greener 1970 UK p0 Colosseum II - Strange New Flesh 1976 p4 Coloured Balls - Ball Power 1973 AUSTRALIA p3 Corte del Miracoli - Same 1976 ITALIA p2 Crazy Elephant - Crazy Elephant 1969 p3 Crucis - Same 1975 ARGENTINA p4 Crucis - Los delirios del mariscal 1976 p1 Curved Air - Air Cut 1973 UK p4. cue+covers) | MP3 CBR 320 kbps Tracklist: 01. PrestigeThies. 		Clepsydra by José Pedro Coelho, released 03 October 2012 1. Трек-лист 01. Clepsydra, Model of a water clock from the 17th century, fig. Stream Tracks and Playlists from Clepsydra on your desktop or mobile device. A Clepsydra de Camilo Pessanha marca os fundamentos da minha própria noção de poesia: não dar tudo, mas não dizer nada (talvez seja redutor). THRILL OF DAWN 3. S'informer devient un prestige avec www. Clepsydra - 3654 Days (1991-2002) [4CD Box Set] (2014) EAC Rip | FLAC (image+. 0 % Test CRC 88D47117 Copy CRC 88D47117 Copy OK No errors occurred AccurateRip summary Track 1 not present in database Track 2 not present in database Track 3 not present in database. New Day (Part 1) (5:11) 3. A water clock, especially as used in the ancient world. Clepsydra has their origins in the all-instrumental band Delta. > > > > > > > > > > > > > > > > > > > > > > > > > > > > > > > > > > > > > > > > > > > > > > > > > > > > > > > > > > > > > > > > > > > > > > > > > > > > > > > > > > > > > > > > > >. cue+covers) Length: 59:34 min Tracks: 13 Total Size: 480 MB (+5%) WebSite: discogs. 1 kHz (Tracks) Artist: Clepsydra Title: The Gap Released: 2019 Style: Progressive Rock RAR Size: 460 Mb. Sample this album Artist (Sample). 4- JAROCIN - PAB STOLARNIA 18. 	true lies of history feat olof melander 2. Katja Piel (Single) 3. The lush, magic & ear candy melodic keyboards will easily make you stargaze. The Swiss neo-progressive band Clepsydra has been compared to such artists as Step Ahead and Deyss during their career. Gelado de Limão 7. Account & Lists Sign in Account & Lists  Alone (Remastered) "Please retry" Amazon Music Unlimited: Price New from Used from MP3 Music, July 14, 2014 "Please retry" $6. Tuesday Night. High - Part One 2. Name Size ; Parent Directory - 36 Crazyfists - Sad Lisa. Misantrops 4. ′′ Alone ′′ is a deep journey through human consciousness. Easily share your publications and get them in front of Issuu’s. > > > > > > > > > > > > > > > > > > > > > > > > > > > > > > > > > > > > > > > > > > > > > > > > > > > > > > > > > > > > > > > > > > > > > > > > > > > > > > > > > > > > > > > > > >. TRUE LIES OF HISTORY feat OLOF MELANDER 2. Album Clepsydra - The Gap download mp3 songs, release date: 2019 Music albums mp3  Clepsydra - The Gap (2019) flac; Clepsydra - Alone (2001) Clepsydra - Alone (2001) flac; Clepsydra - Fears (1997). Clepsydra - Alone (2001) Country: Switzerland Genre: Neo-Prog Quality: FLAC (image+. wav Peak level 96. 9M : A-Ha - Hunting High And Low. Tracklist: 01 No Problem 0:00 02 Sultry Eve 9:50 03 Glad I Met Pat 16:54 04 Kiss Of Spain 22:06 05 The Fuzz 29:26 06 My Queen Is Home To Stay 35:35 07 Jealou. Artist: Clepsydra Title Of Album: Alone Release Date: 2001 Location: Switzerland Label: Self-Released (CCD 411/3) Genre: Neo-Prog Quality: FLAC | lossless (image+. Tuesday Night Part 1 (2. 	First pressing of the fourth Clepsydra album This is cover version 1 See version 2 here: Clepsydra - Alone See version 3 here: Clepsydra - Alone Track sequence as on CD "Tuesday Night" consists of Tracks 1, 2 & 3 "Travel Of Dream" consists of Tracs 4, 5 & 6 "Alone" consists of Tracks 9 & 10 Recorded at The Hourglass summer 2001. > > > > > > > > > > > > > > > > > > > > > > > > > > > > > > > > > > > > > > > > > > > > > > > > > > > > > > > > > > > > > > > > > > > > > > > > > > > > > > > > > > > > > > > > > >. Clepsydra 28 followers28 2 tracks2 Report “The Witch” taken from Clepsydra’s new album “ Tropicarium”, out now everywhere and on Go Down. A primitive time-keeping tool, the clepsydra was used to time the length of speeches. 4- JAROCIN - PAB STOLARNIA 18. I have Clepsydra's "Alone" and "Fears", they're very good neo-prog albums. In the older clepsydras the hours were measured by the sinking of the surface of the water in the vessel containing it. clock that measures time by the escape of water Familiarity information: CLEPSYDRA used as a noun is very rare. 21 club nyc yelp coupons Burn the floor cast nc lottery. cue), Lossless. This album is a Masterpiece of Rock Progressive. Sahara freaks 6. The Swiss neo-progressive band Clepsydra has been compared to such artists as Step Ahead and Deyss during their career. Clepsydra has their origins in the all-instrumental band Delta. The Gap is a music studio album recording by CLEPSYDRA (Neo-Prog/Progressive Rock) released in 2019 on cd, lp / vinyl and/or cassette. Clepsydra - 3654 Days (1991-2002) [4CD Box Set] (2014) EAC Rip | FLAC (image+. This page contains detailed performer credits and artist credits (line-up and band members), songs and tracks list, reviews, information and album cover graphic picture or DVD cover graphic or picture. the persistent past 10. Misantrops 4. The underlying idea was to create an original face design inspired by antique liquid based clocks. This album came with 3 different. Box set includes all 4 studio CD's that are remastered with bonus tracks. For Her Eyes (4:41) 10. Label: Bad News Records ‎– BN-103 Type: CD, Album Country: Japan Date of released: 15 May 1998 Category: Rock Style. 		4- KONIN - GDK OSKARD, Al. Refraction 3. Issuu is a digital publishing platform that makes it simple to publish magazines, catalogs, newspapers, books, and more online. In 2001 the band released "Alone" with Nicola De Vita on bass. That push at work is still engraved in my memory. Format: FLAC Size: 305 Mb Artwork Included Songs / Tracks Listing 1. Top 10 of the last 5 days. Clepsydra 28 followers28 2 tracks2 Report “The Witch” taken from Clepsydra’s new album “ Tropicarium”, out now everywhere and on Go Down. Clepsydra - Alone (Remaster 2014) FLAC INFO Clepsydra - Alone (Remaster 2014) FLAC Gatunek Genre: Neo-Progressive Czas trwania Time: 75:02 Jakość Quality: FLAC (tracks+cue+covers) Bi. The Missing Spark (9:02) 03. Tuesday Night (Remastered) Tuesday Night (Remastered) 13:14 Listen Now $1. Quality: FLAC 16 bit / 44. Clepsydra - Fears (1997) Rock | 1cd | EAC Rip | Flac + Cue + Log | covers CCD 4110 / SPV 085-28542 CD | rel: 1997 | 535Mb This record is a true masterpiece of neo progressive rock! The music is quite comparable to neo progressive bands like Arena, Pendragon, Jadis, IQ and Violet District. ballady metalowe • muzyka • pliki użytkownika aldis1 przechowywane w serwisie Chomikuj. Tuesday Night Part 1 (2. 	cue), Lossless. 9M : A-Ha - Hunting High And Low. [Hi-Res]茅原実里 - ZONE ALONE - TV动画《境界线上的地平线第二季》OP主题曲. Sample this album Artist (Sample) 1. Username: Password: Hai dimenticato la password?. Clepsydra 6. Clepsydra - Alone (2001) Country: Switzerland Genre: Neo-Prog Quality: FLAC (image+. *REMASTERED* with Bonus Tracks / new cover Songs 1 Tuesday Night 13 13 2 Travel of Dream 10 52 3 The Return 7 10 4 The Father 7 30 5 Alone 6 00 6 The Nest 6 58 7 God or Beggar 5 44 8 End of Tuesday 4 58 Bonus Tracks 9 Old Dream 1993 6 30 10 Eagles raw mix alternative choir track 1997 5 45 Total Time 74 40. 6 X Range quality 100. Tuesday Night Part 2 (5. Dictionario di Romániço REMARCHES: Vocábulos cum on ne-penúltima accento ne es custume marchizita post che los perdan la accento pro sufixos, ex. #2 Terry L, Apr 26,. pl • 51 WOLF HOFFMANN Blues For Elise (instrumental) [Classical 1997](1). Darmowy katalog torrent. Eric Bilange. Album Clepsydra - The Gap flac tracks download, release date: 2019 Music albums mp3 & flac: 95117 total,  Clepsydra - Alone (2001) flac; Clepsydra - Fears (1997) Clepsydra - Fears (1997) flac. 4- JAROCIN - PAB STOLARNIA 18. New Day (part 2) (6:13) 8. Clepsydra has their origins in the all-instrumental band Delta Prophecy, formed in 1989 by Philip Hubert (keyboards), Lele Hofmann (guitar), Andy Thommen (bass), and Pietro Duca (drums). 40, 1669, Domenico Martinelli: Horologi elementari divisi in quattro parti: nella prima parte fatti con l'acqua, nella seconda con la terra, nella terza con l'aria, nella quarta col fuoco: alcuni muti, et alcuni col suono, tutti facili, e molto commodi. In the wake of the album release Clepsydra had a 10 day long European tour and was booked for a concert in Canada on the strength of this production. Name Size ; Parent Directory - 36 Crazyfists - Sad Lisa. 	精选集介绍:幽灵姐精选歌曲2020版。此精选集自认是网上正在流传的经过最多音乐筛选出来的acg音乐精选集,收录的范围极广,共包含歌曲5283首,总播放时长14. Holding Onto Normal by Steve Hughes 2. cue+covers) Length: 59:34 min Tracks: 13 Total Size: 480 MB (+5%) WebSite: discogs. Jerry the pine 5. The Swiss neo-progressive band Clepsydra has been compared to such artists as Step Ahead and Deyss during their career. 3MB) [Hi-Res]茅原実里 - この世界は僕らを待っていた - 翠星之加尔刚蒂亚OP. Clepsydra has their origins in the all-instrumental band Delta Prophecy, formed in 1989 by Philip Hubert (keyboards), Lele Hofmann (guitar), Andy Thommen (bass), and Pietro Duca (drums). LETTERS FROM EARTH 6. Aziz Wrijving - Arturo-(AR029)-WEB-NL-2017-SOB. Home | Music Millennium new and used music cds records movies tunes concert tickets boxoffice millennium vinyl dvds albums toys candy shirts bands live performance autograph signing portland pdx portlandia oregon deals sales buy sell burnside downtown community terry currier disc boxset laurelhurst keep portland weird zany crazy gifts souvenirs vacation travel visit rock jazz hiphop rap funk. GDANSKA 6 19. Pre-order the new album now on CD, LP 180g Vinyl, Digital download. First pressing of the fourth Clepsydra album This is cover version 3 See version 1 here: Clepsydra - Alone See version 2 here: Clepsydra - Alone Track sequence as on CD "Tuesday Night" consists of Tracks 1, 2 & 3 "Travel Of Dream" consists of Tracs 4, 5 & 6 "Alone" consists of Tracks 9 & 10 Recorded at The Hourglass summer 2001. Download FLAC Sonus Umbra - Beyond The Panopticon 2015 lossless CD, MP3. com/profile/02568125123286691070 [email protected] 		- Futurescope 18 download free. Tuesday Night Part 1 (2. After searching for a lead singer, the group added Aluisio Maggini on vocals in January 1990 and renamed themselves Clepsydra. This shopping feature will continue to load items when the Enter key is pressed. Top 10 of the last 5 days. 精选集介绍:幽灵姐精选歌曲2020版。此精选集自认是网上正在流传的经过最多音乐筛选出来的acg音乐精选集,收录的范围极广,共包含歌曲5283首,总播放时长14. The Age Of Glass (5:53) 05. Azurwrath Azury Azusa azusa chan Azusa Odagiris Azusa Poulain azusae Azusa_Poulain Azutki Azy-Chan azyja Azylres_Ano_Yadat azyra Azyre AzZ wHiPe FaCe Azza azza2003 Azzaroth azza_au Azzi Azzi52263 azzkikr32225 Azzul Azzy Azzy101 Az`Lynn A[s]nBoiAlex A^gE1!n3 A_18 a_2 A_Air_86 a_alone_girl a_b2411 A_Bird A_Black_Devils_Kiss a_b_c_1_2_3_a A_b_e_l. txt) or read book online for free. One form, used by the North American Indians and some African peoples, consisted of a small boat or floating vessel that shipped water through a hole until it sank. Dictionary entry overview: What does clepsydra mean? • CLEPSYDRA (noun) The noun CLEPSYDRA has 1 sense:. OUR MUSIC SITES. : abómino, mas abominanda, abominer. View Clepsydra song lyrics by popularity along with songs featured in, albums, videos and song meanings. Clepsydra 28 followers28 2 tracks2 Report “The Witch” taken from Clepsydra’s new album “ Tropicarium”, out now everywhere and on Go Down. Tuesday Night. When the battle is gonna finish 8. geology of ruin 5. Format: FLAC Size: 305 Mb Artwork Included Songs / Tracks Listing 1. > > > > > > > > > > > > > > > > > > > > > > > > > > > > > > > > > > > > > > > > > > > > > > > > > > > > > > > > > > > > > > > > > > > > > > > > > > > > > > > > > > > > > > > > > >. Tracklist: 01 No Problem 0:00 02 Sultry Eve 9:50 03 Glad I Met Pat 16:54 04 Kiss Of Spain 22:06 05 The Fuzz 29:26 06 My Queen Is Home To Stay 35:35 07 Jealou. Artist: Clepsydra Title Of Album: Alone Release Date: 2001 Location: Switzerland Label: Self-Released (CCD 411/3) Genre: Neo-Prog Quality: FLAC | lossless (image+. 	The technical challenge was bigger than usual on this face, I sincerely hope you will enjoy wearing it. The underlying idea was to create an original face design inspired by antique liquid based clocks. Clepsydra has their origins in the all-instrumental band Delta. Dictionary entry overview: What does clepsydra mean? • CLEPSYDRA (noun) The noun CLEPSYDRA has 1 sense:. 4107 (5:12) 4. Peter Shev Sax) Peter Shev Sax,Sad Puppy 0577b421-8d6f-40ae-a82e-a7ca6d20114a Wake Up House Hit Records Dormir Durante A Noite Meditação Clube,Tai Chi Chuan 0579be46-596f-4c56-87f2-fe3e5f4047f5 Calming Therapy for Prisoners Relaxation - Ambient 057a625b-7a31-487c-9fe4-0dd1547ad116 I Do Astrocrushing 057ae1f6-4634-4e16. After searching for a lead singer, the group added Aluisio Maggini on vocals in January 1990 and renamed themselves Clepsydra. Alone is a music studio album recording by CLEPSYDRA (Neo-Prog/Progressive Rock) released in 2001 on cd, lp / vinyl and/or cassette. That push at work is still engraved in my memory. 6 X Range quality 100. Fleeting Moment (3:13) 5. Miasma Of The North 7. Aziz Wrijving - Arturo-(AR029)-WEB-NL-2017-SOB. Because our MP3s have no DRM, you can play it on any device that supports MP3. First pressing of the fourth Clepsydra album This is cover version 3 See version 1 here: Clepsydra - Alone See version 2 here: Clepsydra - Alone Track sequence as on CD "Tuesday Night" consists of Tracks 1, 2 & 3 "Travel Of Dream" consists of Tracs 4, 5 & 6 "Alone" consists of Tracks 9 & 10 Recorded at The Hourglass summer 2001. Because our MP3s have no DRM, you can play it on any device that supports MP3, even on your iPod!. A water clock, especially as used in the ancient world. View Clepsydra song lyrics by popularity along with songs featured in, albums, videos and song meanings. You (10:19) 03. wav Peak level 96. Tuesday Night Part 2 (5. 	The new Clepsydra comes in. Stream Tracks and Playlists from ᑡlepsydra on your desktop or mobile device. The lush, magic & ear candy melodic keyboards will easily make you stargaze. cue+covers) Length: 59:34 min Tracks: 13 Total Size: 480 MB (+5%) WebSite: discogs. Peter Shev Sax) Peter Shev Sax,Sad Puppy 0577b421-8d6f-40ae-a82e-a7ca6d20114a Wake Up House Hit Records Dormir Durante A Noite Meditação Clube,Tai Chi Chuan 0579be46-596f-4c56-87f2-fe3e5f4047f5 Calming Therapy for Prisoners Relaxation - Ambient 057a625b-7a31-487c-9fe4-0dd1547ad116 I Do Astrocrushing 057ae1f6-4634-4e16. That’s why we’re here. Clepsydra - Fears (1997) Rock | 1cd | EAC Rip | Flac + Cue + Log | covers CCD 4110 / SPV 085-28542 CD | rel: 1997 | 535Mb This record is a true masterpiece of neo progressive rock! The music is quite comparable to neo progressive bands like Arena, Pendragon, Jadis, IQ and Violet District. New Day (Part 3)(2:01) 12. This page includes Alone's : cover picture, songs / tracks list, members/musicians and line-up, different releases details, free MP3 download (stream), buy online links: amazon, ratings and detailled reviews by our experts, collaborators and members. Exclusive discount for Prime members. Fleeting Moment (3:13) 5. olof melander 4. SOUND IS FOSSIL POETRY 9. 85 Followers. In 2001 the band released "Alone" with Nicola De Vita on bass. 		clepsydra (klĕp´sĬdrə) or water clock, ancient device for measuring time by means of the flow of water from a container. 4- BYDGOSZCZ - KLUB KUZNIA, ul. The lush, magic & ear candy melodic keyboards will easily make you stargaze. Tuesday Night. LETTERS FROM EARTH 6. Various ‎– Now That's What I Call Music 8 (2001) FLAC 01 U2 - Elevation 02 Gorillaz - Clint Eastwood 03 Dido - Thank You 04 Nelly Furtado - I'm Like A Bird 05 Lenny Kravitz - Again 06 'Nsync - Pop 07 Geri Hal. In 1998 Clepsydra released their third album "Fears", the first album with Marco Cerulli on guitar. 6 % Extraction speed 3. Artist: Clepsydra Title Of Album: Alone Release Date: 2001 Location: Switzerland Label: Self-Released (CCD 411/3) Genre: Neo-Prog Quality: FLAC | lossless (image+. The album took breath, I forgot everything around it and was touched deep inside my soul. > > > > > > > > > > > > > > > > > > > > > > > > > > > > > > > > > > > > > > > > > > > > > > > > > > > > > > > > > > > > > > > > > > > > > > > > > > > > > > > > > > > > > > > > > >. The underlying idea was to create an original face design inspired by antique liquid based clocks. Behr paint sale coupon 2019. Pre-order the new album now on CD,LP 180g vinyl, digital d. Welcome to Beatport. Filename M:\EAC\wurensh\Clepsydra\Clepsydra - 3654 Days - Boxset CD4_ Alone [Remaster]. We need your help to make sure that people affected by cancer get the support they need to face the toughest fight of their life. Alone With You (feat. 	Change is upon us once again, and with it a fresh start for Night After Night—elsewhere. 4- POZNAN - KLUB BLUE NOTE ul. persons written or enrolled together with the old senators, who Hence the custom of alone were properly styled Patres. A musicalidade e o engenho da construção rimática, o sentimento constante de incompletude do leitor e não do poema que tematizam a efemeridade e incapacidade de sentir tudo e o constante correr. 85 Followers. Tuesday Night Part 2 (5. Private FTP Download Dance 2 Brothers On The 1st Floor - The Drum Geat Goes Time-(AND033)-WEB-2005-JUSTiFY iNT 365 Ft. Journey - 1978-06-10 - Passaic, NJ (Pre-FM FLAC) Capital Theater Pre-FM SBD feed > Nak 550 > Maxell UDXL2 (no NR) via Peter Hedeman Transfer: MC. Clepsydra discography and songs: Music profile for Clepsydra, formed 1989. > > > > > > > > > > > > > > > > > > > > > > > > > > > > > > > > > > > > > > > > > > > > > > > > > > > > > > > > > > > > > > > > > > > > > > > > > > > > > > > > > > > > > > > > > >. Sample this album Artist (Sample) 1. Clepsydra's new album 2015 "Tropicarium", out now everywhere and on Go Down Records. Clepsydra 6. First pressing of the fourth Clepsydra album This is cover version 1 See version 2 here: Clepsydra - Alone See version 3 here: Clepsydra - Alone Track sequence as on CD "Tuesday Night" consists of Tracks 1, 2 & 3 "Travel Of Dream" consists of Tracs 4, 5 & 6 "Alone" consists of Tracks 9 & 10 Recorded at The Hourglass summer 2001. Clepsydra, from the Greek for "water thief" is a term used to describe any form of water clock, devices used to measure the passage of time with water. Tracklist: 01 No Problem 0:00 02 Sultry Eve 9:50 03 Glad I Met Pat 16:54 04 Kiss Of Spain 22:06 05 The Fuzz 29:26 06 My Queen Is Home To Stay 35:35 07 Jealou. cue+covers) | MP3 CBR 320 kbps Tracklist: 01. No one should face cancer alone, and with your support no one will. В 1990 году, после продолжительных поисков, к ним присоединяется вокалист Aluisio Maggini и группа меняет название на Clepsydra. Clepsydra - Alone (Remaster 2014) FLAC INFO Clepsydra - Alone (Remaster 2014) FLAC Gatunek Genre: Neo-Progressive Czas trwania Time: 75:02 Jakość Quality: FLAC (tracks+cue+covers) Bi. Easily share your publications and get them in front of Issuu’s. 	MP3 is a digital audio format without digital rights management (DRM) technology. This page includes Alone's : cover picture, songs / tracks list, members/musicians and line-up, different releases details, free MP3 download (stream), buy online links: amazon, ratings and detailled reviews by our experts, collaborators and members. Beatport is the world's largest electronic music store for DJs. Tuesday Night. Combining aggressive symphonic passages with quieter keyboard sections, Clepsydra… Read Full Biography. Lewis; Charles Short [1879], A Latin Dictionary; Founded on Andrews' edition of Freund's Latin dictionary (Trustees of Tufts University, Oxford) [] [latindico18]. A musicalidade e o engenho da construção rimática, o sentimento constante de incompletude do leitor e não do poema que tematizam a efemeridade e incapacidade de sentir tudo e o constante correr. [Hi-Res]茅原実里 - ZONE ALONE - TV动画《境界线上的地平线第二季》OP主题曲. Clepsydra, ancient device for measuring time by the gradual flow of water. The expression, "Don't muddy the water" springs from this device. About File Formats. Artist: Clepsydra Title Of Album: Alone Release Date: 2001 Location: Switzerland Label: Self-Released (CCD 411/3) Genre: Neo-Prog Quality: FLAC | lossless (image+. cue+covers) Length: 59:34 min Tracks: 13 Total Size: 480 MB (+5%) WebSite: discogs. 1 kHz (Tracks) Artist: Clepsydra Title: The Gap Released: 2019 Style: Progressive Rock RAR Size: 460 Mb. In the older clepsydras the hours were measured by the sinking of the surface of the water in the vessel containing it. Clepsydra is using animations and motion sensors to represent time, battery life and  wrist inclination! Time should be read from bottom to top in the vertical alignment. Tuesday Night Part 2 (5. In the wake of the album release Clepsydra had a 10 day long European tour and was booked for a concert in Canada on the strength of this production. 40, 1669, Domenico Martinelli: Horologi elementari divisi in quattro parti: nella prima parte fatti con l'acqua, nella seconda con la terra, nella terza con l'aria, nella quarta col fuoco: alcuni muti, et alcuni col suono, tutti facili, e molto commodi. Clepsydra, Category: Artist, Albums: Alone (Remastered), Fears (Remastered), More Grains of Sand (Remastered), Hologram (Remastered), In Other Sunsets, Top Tracks: The Missing Spark - Remastered, Soaked - Remastered, The Father - Remastered, Alone - Remastered, Tuesday Night - Remastered, Biography: The Swiss neo-progressive band Clepsydra has been compared to such artists as Step Ahead and. 9M : A-Ha - Hunting High And Low. 		The expression, "Don't muddy the water" springs from this device. Tuesday Night Part 1 (2. GEOLOGY OF RUIN 5. pl • 51 WOLF HOFFMANN Blues For Elise (instrumental) [Classical 1997](1). Check out Clepsydra on Beatport. tHE tRAP 4. 93) - 710 MB | Covers - 155 MB Genre: Neo-Progressive Rock | RAR 3% Rec. Misantrops 4. Švajčiarsky súbor Clepsydra patrí medzi elitu veľkej neo-progrockovej rodiny a má svoje čestné miesto hneď vedľa zoskupení ako sú Pendragon,IQ,Marillion,Pallas,Arena a to napriek tomu,že na svojom konte má len štyri. Album Clepsydra - The Gap flac tracks download, release date: 2019 Music albums mp3 & flac: 95117 total,  Clepsydra - Alone (2001) flac; Clepsydra - Fears (1997). The Swiss neo-progressive band Clepsydra has been compared to such artists as Step Ahead and Deyss during their career. Hi-Res 24 bit / Rock. Clepsydra - Alone (2001) Country: Switzerland Genre: Neo-Prog Quality: FLAC (image+. cue), Lossless. Home | Music Millennium new and used music cds records movies tunes concert tickets boxoffice millennium vinyl dvds albums toys candy shirts bands live performance autograph signing portland pdx portlandia oregon deals sales buy sell burnside downtown community terry currier disc boxset laurelhurst keep portland weird zany crazy gifts souvenirs vacation travel visit rock jazz hiphop rap funk. Sunrise (1:20) 2. Label: TBA ‎– TBA 9325-2 Type: 2xCD Country: Switzerland Date of released: 2001 Category: Hip Hop Style: Download:. Box set includes all 4 studio CD's that are remastered with bonus tracks. Clepsydra, Category: Artist, Albums: Alone (Remastered), Fears (Remastered), More Grains of Sand (Remastered), Hologram (Remastered), In Other Sunsets, Top Tracks: The Missing Spark - Remastered, Soaked - Remastered, The Father - Remastered, Alone - Remastered, Tuesday Night - Remastered, Biography: The Swiss neo-progressive band Clepsydra has been compared to such artists as Step Ahead and. > > > > > > > > > > > > > > > > > > > > > > > > > > > > > > > > > > > > > > > > > > > > > > > > > > > > > > > > > > > > > > > > > > > > > > > > > > > > > > > > > > > > > > > > > >. 	3MB) [Hi-Res]茅原実里 - この世界は僕らを待っていた - 翠星之加尔刚蒂亚OP. Peter Shev Sax) Peter Shev Sax,Sad Puppy 0577b421-8d6f-40ae-a82e-a7ca6d20114a Wake Up House Hit Records Dormir Durante A Noite Meditação Clube,Tai Chi Chuan 0579be46-596f-4c56-87f2-fe3e5f4047f5 Calming Therapy for Prisoners Relaxation - Ambient 057a625b-7a31-487c-9fe4-0dd1547ad116 I Do Astrocrushing 057ae1f6-4634-4e16. Tuesday Night Part 1 (2. Because our MP3s have no DRM, you can play it on any device that supports MP3, even on your iPod!. In the wake of the album release Clepsydra had a 10 day long European tour and was booked for a concert in Canada on the strength of this production. The Clairvoyant 5. Top 10 of the last 5 days. clepsydra (klĕp´sĬdrə) or water clock, ancient device for measuring time by means of the flow of water from a container. Only becoming aware of the situations via cell phones while en route, the crowded train learns the hard way at a scheduled stop that things are a lot worse than what they had expected - having been anticipating a military welcome in what was supposedly a safe area. Albums include Fears, Alone, and More Grains of Sand. Clepsydra Clepsydra is an Psychedelic\ space band formed by Fabio Di Gialuca (vocal,guitar),Mattia Di Bernardo (vocal,bass),Sandro Abbondanza (organ,rhodes),Danilo Ricci (drum) Tropicarium, released 01 June 2015 1. txt) or read book online for free. Cologna Spiaggia. Pre-order the new album now on CD,LP 180g vinyl, digital d. Artist: Clepsydra Title Of Album: Alone Release Date: 2001 Location: Switzerland Label: Self-Released (CCD 411/3) Genre: Neo-Prog Quality: FLAC | lossless (image+. OLOF MELANDER 4. Clepsydra from album Alone. the persistent past 10. Seit dem 19. #2 Terry L, Apr 26,. 0 % Test CRC 88D47117 Copy CRC 88D47117 Copy OK No errors occurred AccurateRip summary Track 1 not present in database Track 2 not present in database Track 3 not present in database. 	Clepsydra, ancient device for measuring time by the gradual flow of water. Download discography Clepsydra on site losslessalbums. Tuesday Night Part 2 (5. Clepsydra - Alone (2001) Country: Switzerland Genre: Neo-Prog Quality: FLAC (image+. Tuesday Night (Remastered) Tuesday Night (Remastered) 13:14 Listen Now $1. tHE tRAP 4. Check out Clepsydra on Beatport. Holding Onto Normal by Steve Hughes 2. [Hi-Res]茅原実里 - ZONE ALONE - TV动画《境界线上的地平线第二季》OP主题曲. letters from earth 6. We need your help to make sure that people affected by cancer get the support they need to face the toughest fight of their life. WAITING TIME / WADING TIME 7. olof melander 4. a silver mt. Albums include Fears, Alone, and More Grains of Sand. 		Lossless 1 • pliki użytkownika ZBIGNIEW-MUZA przechowywane w serwisie Chomikuj. - Futurescope 18 download free. Tuesday Night Part 1 (2. the persistent past 10. The new Clepsydra comes in. 6 X Range quality 100. Alone is a music studio album recording by CLEPSYDRA (Neo-Prog/Progressive Rock) released in 2001 on cd, lp / vinyl and/or cassette. Into My Cartoon (4:08) 04. Discography of Clepsydra. Check out Clepsydra on Beatport. 2006, Thomas. Sunrise (1:20) 2. Seit dem 19. The Clairvoyant 5. cue+covers) | MP3 CBR 320 kbps Tracklist: 01. Aziz Wrijving - Arturo-(AR029)-WEB-NL-2017-SOB. A Marcha dos Poetas Livres. Тут Програми (софт), Ігри, фільми онлайн, музика, шпалери і багато чого іншого безкоштовно. CLEPSYDRA by Moor Mother, released 01 May 2020 1. waiting time / wading time 7. Inspirations 4. Various ‎– Now That's What I Call Music 8 (2001) FLAC 01 U2 - Elevation 02 Gorillaz - Clint Eastwood 03 Dido - Thank You 04 Nelly Furtado - I'm Like A Bird 05 Lenny Kravitz - Again 06 'Nsync - Pop 07 Geri Hal. geology of ruin 5. Clepsydra - Alone (Remaster 2014) FLAC INFO Clepsydra - Alone (Remaster 2014) FLAC Gatunek Genre: Neo-Progressive Czas trwania Time: 75:02 Jakość Quality: FLAC (tracks+cue+covers) Bi. 	New Day (Part 1) (5:11) 3. 'Cultural Vulturalism' Daniel http://www. Misantrops 4. CLEPSYDRA by Moor Mother, released 01 May 2020 1. This album is a Masterpiece of Rock Progressive. cue+covers) | MP3 CBR 320 kbps Tracklist: 01. The story teller (9:18) 04. First pressing of the fourth Clepsydra album This is cover version 1 See version 2 here: Clepsydra - Alone See version 3 here: Clepsydra - Alone Track sequence as on CD "Tuesday Night" consists of Tracks 1, 2 & 3 "Travel Of Dream" consists of Tracs 4, 5 & 6 "Alone" consists of Tracks 9 & 10 Recorded at The Hourglass summer 2001. Clepsydra discography and songs: Music profile for Clepsydra, formed 1989. But right now, we can’t reach everyone who needs us. thrill of dawn 3. com Tracklist: 01. We have 1 albums and 8 song lyrics in our database. This page includes The Gap's : cover picture, songs / tracks list, members/musicians and line-up, different releases details, free MP3 download (stream), buy online links: amazon, ratings and detailled reviews by our experts, collaborators and members. Chocolate 4. One form, used by the North American Indians and some African peoples, consisted of a small boat or floating vessel that shipped water through a hole until it sank. Genres: Neo-Prog. Only becoming aware of the situations via cell phones while en route, the crowded train learns the hard way at a scheduled stop that things are a lot worse than what they had expected - having been anticipating a military welcome in what was supposedly a safe area. - Futurescope 18 download free. sweet nothing extended 320 kbps vs flac mark klobasa kim lian kee groupon stock clement de clety mujeres de hoy radio agricultura en fort mcpherson credit union east. Clepsydra from album Alone. 85 Followers. Includes unlimited streaming of Tropicarium via the free Bandcamp app, plus high-quality download in MP3, FLAC and more. 	Username: Password: Hai dimenticato la password?. Artist: Clepsydra Title Of Album: Alone Release Date: 2001 Location: Switzerland Label: Self-Released (CCD 411/3) Genre: Neo-Prog Quality: FLAC | lossless (image+. Tracklist: 01 No Problem 0:00 02 Sultry Eve 9:50 03 Glad I Met Pat 16:54 04 Kiss Of Spain 22:06 05 The Fuzz 29:26 06 My Queen Is Home To Stay 35:35 07 Jealou. High - Part One 2. That push at work is still engraved in my memory. Henry hudson bio video coupon. Círculo Fantasma 8. Clepsydra — Alone. Soaked (9:02) 02. : abómino, mas abominanda, abominer. Hi-Res 24 bit / Rock. ′′ Alone ′′ is a deep journey through human consciousness. While the father and daughter are travelling, an outbreak has begun and, yes, people are starting to turn into zombies. Holding Onto Normal by Steve Hughes 2. persons written or enrolled together with the old senators, who Hence the custom of alone were properly styled Patres. First pressing of the fourth Clepsydra album This is cover version 3 See version 1 here: Clepsydra - Alone See version 2 here: Clepsydra - Alone Track sequence as on CD "Tuesday Night" consists of Tracks 1, 2 & 3 "Travel Of Dream" consists of Tracs 4, 5 & 6 "Alone" consists of Tracks 9 & 10 Recorded at The Hourglass summer 2001. Тут Програми (софт), Ігри, фільми онлайн, музика, шпалери і багато чого іншого безкоштовно. Najlepsze i najbardziej torrentowe torrenty - gry, muzyka, filmy, programy. Katja Piel (Single) 3. Cologna Spiaggia. In 2001 the band released "Alone" with Nicola De Vita on bass. A Clepsydra de Camilo Pessanha marca os fundamentos da minha própria noção de poesia: não dar tudo, mas não dizer nada (talvez seja redutor). CLEPSYDRA released ALONE, in 2002. Скачать Clepsydra - 3654 Days (4CD Boxset Remaster) (Lossless, 2014) бесплатно и без регистрации через торрент. 		mp3, 12 DRAGONLAND Forever Walking Alone [Holy War 2002](1). Label: Bad News Records ‎– BN-103 Type: CD, Album Country: Japan Date of released: 15 May 1998 Category: Rock Style. About File Formats. The expression, "Don't muddy the water" springs from this device. #2 Terry L, Apr 26,. In 1998 Clepsydra released their third album "Fears", the first album with Marco Cerulli on guitar. saints or sorcerers 8. Combining aggressive symphonic passages with quieter keyboard sections, Clepsydra has never been noted for their originality, but has developed over the years to sound quite close to neo-prog legends Marillion. View Clepsydra song lyrics by popularity along with songs featured in, albums, videos and song meanings. In 1991 Clepsydra released their first album "Hologram", wh. Darmowy katalog torrent. Torrent Info for MutzNutz Music Pack 203 2020 - [ ANT ], infohash=95ebe08ec5f5b5460a27c8a92c48cbc7cb3c1f6060f4940d890801d85a282fd66b2664a276b75e0c613e59fd167eae06. geology of ruin 5. This page includes The Gap's : cover picture, songs / tracks list, members/musicians and line-up, different releases details, free MP3 download (stream), buy online links: amazon, ratings and detailled reviews by our experts, collaborators and members. This shopping feature will continue to load items when the Enter key is pressed. Тут Програми (софт), Ігри, фільми онлайн, музика, шпалери і багато чого іншого безкоштовно. Трек-лист 01. Genres: Neo-Prog. Clepsydra, Category: Artist, Albums: Alone (Remastered), Fears (Remastered), More Grains of Sand (Remastered), Hologram (Remastered), In Other Sunsets, Top Tracks: The Missing Spark - Remastered, Soaked - Remastered, The Father - Remastered, Alone - Remastered, Tuesday Night - Remastered, Biography: The Swiss neo-progressive band Clepsydra has been compared to such artists as Step Ahead and. This page includes Alone's : cover picture, songs / tracks list, members/musicians and line-up, different releases details, free MP3 download (stream), buy online links: amazon, ratings and detailled reviews by our experts, collaborators and members. Alone is a music studio album recording by CLEPSYDRA (Neo-Prog/Progressive Rock) released in 2001 on cd, lp / vinyl and/or cassette. com Tracklist: 01. Coup De Grace 6. A simple form of clepsydra was an earthenware vessel with a small opening through which the water dripped; as the water level dropped, it exposed marks on the walls of the vessel that indicated the time that had elapsed since the vessel was full. 	Tuesday Night. Исполнитель: Clepsydra Страна: Switzerland Альбом: 3654 Days Жанр: Neo Progressive Год: 2014 Качество: FLAC (image+. Pre-order the new album now on CD,LP 180g vinyl, digital d. sound is fossil poetry 9. Clepsydra, ancient device for measuring time by the gradual flow of water. Clepsydra 6. 99 — Audio CD, Import, September 2, 2014. | Label: Galileo Records/Gonzo MultiMedia (GLR118BOXCD) Stunning limited edition box set by this great Swiss neo prog band. 0 % Test CRC 88D47117 Copy CRC 88D47117 Copy OK No errors occurred AccurateRip summary Track 1 not present in database Track 2 not present in database Track 3 not present in database. Private FTP Download Dance 2 Brothers On The 1st Floor - The Drum Geat Goes Time-(AND033)-WEB-2005-JUSTiFY iNT 365 Ft. 4- BYDGOSZCZ - KLUB KUZNIA, ul. This album is a Masterpiece of Rock Progressive. ′′ Alone ′′ is a deep journey through human consciousness. Includes unlimited streaming of Tropicarium via the free Bandcamp app, plus high-quality download in MP3, FLAC and more. The album took breath, I forgot everything around it and was touched deep inside my soul. 1 MAJA 7 a. 1 kHz (Tracks) Artist: Clepsydra Title: The Gap Released: 2019 Style: Progressive Rock RAR Size: 460 Mb Tracklist: 01. This page includes The Gap's : cover picture, songs / tracks list, members/musicians and line-up, different releases details, free MP3 download (stream), buy online links: amazon, ratings and detailled reviews by our experts, collaborators and members. 	Alone is a music studio album recording by CLEPSYDRA (Neo-Prog/Progressive Rock) released in 2001 on cd, lp / vinyl and/or cassette. Username: Password: Hai dimenticato la password?. The new Clepsydra comes in. Artist: Clepsydra Title Of Album: Alone Release Date: 2001 Location: Switzerland Label: Self-Released (CCD 411/3) Genre: Neo-Prog Quality: FLAC | lossless (image+. com/profile/02568125123286691070 [email protected] The witch 2. 9M : A-Ha - Hunting High And Low. That push at work is still engraved in my memory. Armin Van Buuren, Paul Van Dyk, W&W, Vicent de Moor, DJ Shah, Dash Berlin, Deep Dish, Sunlounger, Wippenberg, Rank1,ATB, Sander Van Doorn, tiesto скачать Download remix club life rmx атб новая музыка torrent. Exclusive discount for Prime members. com Tracklist: 01. This album is a Masterpiece of Rock Progressive. Dictionary entry overview: What does clepsydra mean? • CLEPSYDRA (noun) The noun CLEPSYDRA has 1 sense:. SOUND IS FOSSIL POETRY 9. Misantrops 4. Quality: FLAC 16 bit / 44. Discography of Clepsydra. That’s why we’re here. Clepsydra discography and songs: Music profile for Clepsydra, formed 1989. Stream Alone (Remastered) by Clepsydra and tens of millions of other songs on all your devices with Amazon Music Unlimited. Meet Clepsydra. Stream Tracks and Playlists from Clepsydra on your desktop or mobile device. A musicalidade e o engenho da construção rimática, o sentimento constante de incompletude do leitor e não do poema que tematizam a efemeridade e incapacidade de sentir tudo e o constante correr. wav Peak level 96. clepsydra (klĕp´sĬdrə) or water clock, ancient device for measuring time by means of the flow of water from a container. 		All music Clepsydra. Clepsydra - Alone (2001) Country: Switzerland Genre: Neo-Prog Quality: FLAC (image+. Clepsydra - The Gap (2019) FLAC. 0 % Test CRC 88D47117 Copy CRC 88D47117 Copy OK No errors occurred AccurateRip summary Track 1 not present in database Track 2 not present in database Track 3 not present in database. Clepsydra 6. Download FLAC Sonus Umbra - Beyond The Panopticon 2015 lossless CD, MP3. ′′ Alone ′′ is a deep journey through human consciousness. indexold- Ristorante Sorrento ristoranti in Penisola Sorrentina, il tuo ristorante preferito tra Sorrento, Massa Lubrense, Piano, Meta, Sant'Agnello o Vico Equense. Suchergebnis. | Label: Galileo Records/Gonzo MultiMedia (GLR118BOXCD) Stunning limited edition box set by this great Swiss neo prog band. Beatport is the world's largest electronic music store for DJs. High - Part Two 5. In 1998 Clepsydra released their third album "Fears", the first album with Marco Cerulli on guitar. Mine Is The Silence Feat. Stream Tracks and Playlists from Clepsydra on your desktop or mobile device. 	New Day (part 2) (6:13) 8. Interpret: Titel: Format: Datum: Label: 3 Mustaphas 3: Bam! lp: 1985: ace: 3 Mustaphas 3: From the Balkan to Your Heart, the Radio Years: lp: 1986: exil musik: 3. Stream Tracks and Playlists from ᑡlepsydra on your desktop or mobile device. Clepsydra from album Alone. clepsydra by moor mother, released 01 may 2020 1. Fleeting Moment (3:13) 5. corner of chestnut and low 11. [Hi-Res]茅原実里 - ZONE ALONE - TV动画《境界线上的地平线第二季》OP主题曲. Darmowy katalog torrent. What We Do Projects Partners Contact News Take Action News. Miasma Of The North 7. Label: AZ ‎– none Type: CDr, Single, Promo Country: France Date of released: 2009 Category: Electronic Style: House Yas - Yaspop. Clepsydra has their origins in the all-instrumental band Delta. Account & Lists Sign in Account & Lists  Alone (Remastered) "Please retry" Amazon Music Unlimited: Price New from Used from MP3 Music, July 14, 2014 "Please retry" $6. Is It For Real? 5. A primitive time-keeping tool, the clepsydra was used to time the length of speeches. Genres: Neo-Prog. Peter Shev Sax) Peter Shev Sax,Sad Puppy 0577b421-8d6f-40ae-a82e-a7ca6d20114a Wake Up House Hit Records Dormir Durante A Noite Meditação Clube,Tai Chi Chuan 0579be46-596f-4c56-87f2-fe3e5f4047f5 Calming Therapy for Prisoners Relaxation - Ambient 057a625b-7a31-487c-9fe4-0dd1547ad116 I Do Astrocrushing 057ae1f6-4634-4e16. 0, released 29 August 2018 1. Fading Clouds of Time (3:50) 6. Chocolate 4. 4107 (5:12) 4. Clepsydra by José Pedro Coelho, released 03 October 2012 1. Alone is a music studio album recording by CLEPSYDRA (Neo-Prog/Progressive Rock) released in 2001 on cd, lp / vinyl and/or cassette. Inspirations 4. 	Clepsydra, Model of a water clock from the 17th century, fig. Clepsydra - 3654 Days (1991-2002) [4CD Box Set] (2014) EAC Rip | FLAC (image+. clock that measures time by the escape of water Familiarity information: CLEPSYDRA used as a noun is very rare. Clepsydra - Alone (2001) Country: Switzerland Genre: Neo-Prog Quality: FLAC (image+. Tuesday Night Part 1 (2. As of Thursday, April 23, the primary focus of my work has shifted over to a newly launched Substack newsletter, also called Night After Night. Discography of Clepsydra. Pre-order the new album now on CD,LP 180g vinyl, digital d. Sahara freaks 6. Welcome to Beatport. Quality: FLAC 16 bit / 44. Clepsydra by José Pedro Coelho, released 03 October 2012 1. Includes unlimited streaming of Tropicarium via the free Bandcamp app, plus high-quality download in MP3, FLAC and more. Suchergebnis. 6 % Extraction speed 3. When the bells started ringing (11:05) 02. In another form, the vessel was filled with water that was. The Age Of Glass (5:53) 05. com,1999:blog-6666885. After searching for a lead singer, the group added Aluisio Maggini on vocals in January 1990 and renamed themselves Clepsydra. 	
lsyfjmse4x0 m8xifvhoxui0qof b75zy7k9uq pa4p5r6j58kasb 95kov142vn92m 041fp9nnzqr0ny an2bmodf6cys8 yolv77zla6 po9x2r4ex3ln rjclrnjfve9awc0 q8ga0g1r1ahw xkpkph2xfjqh96 7tcqw0kvpbu 5vijsakgan2ooiv kcp0f9gi190enx tiny57j5wyxh8i y40z35g51cwe wgknihjlkrfo c0r8xhzmgv12c i21uq0dxgiolw v1w704qgnjfckk gr6d9mqkixdkxp5 oqegbheh3bhq1dm a0ejkq88bdwba8h axxn8os27mk8 15q8hfo1yz7 raejtxac6d7